<?xml version="1.0" standalone="no"?>
<!DOCTYPE svg PUBLIC "-//W3C//DTD SVG 1.1//EN" "http://www.w3.org/Graphics/SVG/1.1/DTD/svg11.dtd" >
<svg xmlns="http://www.w3.org/2000/svg">
<metadata>Generated by IcoMoon</metadata>
<defs>
<font id="icofont-schweizerhof" horiz-adv-x="1024">
<font-face units-per-em="1024" ascent="960" descent="-64" />
<missing-glyph horiz-adv-x="1024" />
<glyph unicode="&#x20;" horiz-adv-x="512" d="" />
<glyph unicode="&#xe900;" glyph-name="arrow-down" d="M487.075 59.857v882.488h67.297v-861.963l332.689 361.771 48.663-47.9-423.724-475.908-423.724 475.908 48.663 47.9 350.136-382.295z" />
<glyph unicode="&#xe901;" glyph-name="arrow-left" d="M141.512 455.27h882.488v-67.297h-861.963l361.771-332.689-47.9-48.663-475.908 423.724 475.908 423.724 47.9-48.663-382.295-350.136z" />
<glyph unicode="&#xe902;" glyph-name="arrow-right" d="M882.488 405.42h-882.488v67.297h861.963l-361.771 332.689 47.9 48.663 475.908-423.724-475.908-423.724-47.9 48.663 382.295 350.136z" />
<glyph unicode="&#xe903;" glyph-name="arrow-up" d="M536.925 800.833v-882.488h-67.297v861.963l-332.689-361.771-48.663 47.9 423.724 475.908 423.724-475.908-48.663-47.9-350.136 382.295z" />
<glyph unicode="&#xe904;" glyph-name="chevron-down" d="M1024 676.351l-70.054 78.849-442.868-469.456-441.024 469.456-70.054-78.849 511.999-528.8z" />
<glyph unicode="&#xe905;" glyph-name="chevron-left" d="M736.976-60.624l78.849 70.054-469.456 442.868 469.456 441.024-78.849 70.054-528.8-511.999z" />
<glyph unicode="&#xe906;" glyph-name="chevron-right" d="M287.024 963.376l-78.849-70.054 469.456-442.868-469.456-441.024 78.849-70.054 528.8 511.999z" />
<glyph unicode="&#xe907;" glyph-name="chevron-up" d="M0 226.4l70.054-78.849 442.868 469.456 441.024-469.456 70.054 78.849-511.999 528.8z" />
<glyph unicode="&#xe908;" glyph-name="world" d="M512 953.946c-279.421 0-505.946-226.525-505.946-505.946s226.525-505.946 505.946-505.946c279.421 0 505.946 226.525 505.946 505.946 0 134.191-53.308 262.883-148.185 357.761s-223.57 148.185-357.761 148.185zM906.087 628.692h-172.205c-25.181 89.034-68.915 171.72-128.302 242.671 132.542-29.593 243.67-119.339 300.487-242.671zM510.021 31.309c-66.269 66.020-115.778 146.927-144.378 235.979h292.734c-28.656-89.064-78.228-169.993-144.562-235.979-1.135-0.817-2.659-0.817-3.795 0zM347.384 339.589c-13.261 71.666-13.261 145.157 0 216.843h329.232c13.261-71.666 13.261-145.157 0-216.843h-329.232zM78.335 448c-0.059 36.569 4.556 73.001 13.73 108.411h181.957c-11.808-71.792-11.808-145.031 0-216.843h-181.957c-9.174 35.41-13.789 71.842-13.73 108.411zM512 865.405c0.637 0.252 1.342 0.252 1.979 0 66.356-66.22 115.869-147.404 144.378-236.713h-292.734c28.656 89.064 78.228 169.993 144.562 235.979 0.496 0.452 1.137 0.708 1.816 0.714zM749.978 556.411h181.957c18.322-71.128 18.322-145.715 0-216.843h-181.957c11.808 71.792 11.808 145.031 0 216.843zM418.4 871.363c-59.321-71.002-103.029-153.677-128.302-242.671h-172.205c56.837 123.332 167.965 213.078 300.487 242.671zM117.913 267.308h172.205c25.181-89.034 68.915-171.72 128.302-242.671-132.542 29.593-243.67 119.339-300.487 242.671zM605.784 24.637c59.256 71.013 102.903 153.688 128.118 242.671h172.205c-56.837-123.332-167.965-213.078-300.487-242.671h0.184z" />
<glyph unicode="&#xe909;" glyph-name="plus" d="M470.925 489.074v465.53h82.149v-465.53h465.53v-82.149h-465.53v-465.53h-82.149v465.53h-465.53v82.149h465.53zM470.925 489.074v465.53h82.149v-465.53h465.53v-82.149h-465.53v-465.53h-82.149v465.53h-465.53v82.149h465.53z" />
<glyph unicode="&#xe90a;" glyph-name="navigation" horiz-adv-x="1784" d="M0 960h1783.742v-99.097h-1783.742v99.097zM0 497.548h1783.742v-99.097h-1783.742v99.097zM0 35.097h1014.444v-99.097h-1014.444v99.097z" />
<glyph unicode="&#xe90b;" glyph-name="close" d="M458.105 448l-458.105 458.105 53.895 53.895 458.105-458.105 458.105 458.105 53.895-53.895-458.105-458.105 458.105-458.105-53.895-53.895-458.105 458.105-458.105-458.105-53.895 53.895 458.105 458.105z" />
<glyph unicode="&#xe90c;" glyph-name="booker-chevron" d="M1024 710.514l-52.204 44.686-460.225-490.974-459.366 490.974-52.204-44.686 511.571-547.794z" />
<glyph unicode="&#xe90d;" glyph-name="form-calendar" d="M853.316 550.4c0.011 78.846 0.017 136.395 0.017 136.395 0 0.024-40.778 0.044-102.4 0.062v-33.956c0-18.907-15.151-34.233-34.133-34.233-18.851 0-34.133 15.31-34.133 34.233v33.973c-104.256 0.022-237.108 0.037-341.333 0.047v-34.020c0-18.907-15.151-34.233-34.133-34.233-18.851 0-34.133 15.31-34.133 34.233v34.026c-61.527 0.005-102.231 0.008-102.231 0.008-0.035 0-0.065-57.616-0.089-136.533h682.569zM853.306 482.133h-682.578c-0.041-166.977-0.061-375.328-0.061-375.328 0-0.097 682.498-0.138 682.498-0.138 0.066 0 0.114 208.466 0.141 375.467zM750.933 755.2h102.231c37.796 0 68.436-30.571 68.436-68.405v-579.99c0-37.779-30.618-68.405-68.436-68.405h-682.329c-37.796 0-68.436 30.571-68.436 68.405v579.99c0 37.779 30.618 68.405 68.436 68.405h102.231v68.167c0 18.907 15.151 34.233 34.133 34.233 18.851 0 34.133-15.31 34.133-34.233v-68.167h341.333v68.167c0 18.907 15.151 34.233 34.133 34.233 18.851 0 34.133-15.31 34.133-34.233v-68.167z" />
<glyph unicode="&#xe90e;" glyph-name="form-chevron" d="M1033.513 632.053l-59.894 58.955-462.559-502.993-460.681 502.993-59.894-58.955 521.513-553.313z" />
<glyph unicode="&#xe90f;" glyph-name="form-mail" d="M938.057 806.4h-903.314c-19.188 0-34.743-15.555-34.743-34.743v-625.371c0-19.188 15.555-34.743 34.743-34.743h903.314c19.188 0 34.743 15.555 34.743 34.743v625.371c0 19.188-15.555 34.743-34.743 34.743zM881.079 736.914l-394.679-303.583-394.679 303.583h789.358zM69.486 181.029v485.323l395.756-304.417c12.479-9.581 29.838-9.581 42.317 0l395.756 304.417v-485.323h-833.829z" />
<glyph unicode="&#xe910;" glyph-name="form-number" d="M120.913 697.169h71.728v-478.185h-86.757v349.759l-105.884-101.785v112.715l120.913 117.497zM397.577 297.542h222.015v-78.559h-336.779v82.658l162.583 153.019c56.699 53.284 76.51 76.51 76.51 110.666s-25.959 60.115-63.53 60.115h-6.831c-40.987 0-71.728-28.691-73.094-77.876h-90.855c0 97.686 71.045 156.435 166.682 156.435s158.484-56.699 158.484-135.258c0-61.481-28.691-99.736-90.855-157.118l-124.328-114.081zM851.853 212.152c-100.419 0-169.414 52.6-169.414 138.674h90.855c3.416-34.839 29.374-60.115 75.143-60.115h6.831c54.65 0 77.193 34.156 77.193 64.897 0 40.987-34.839 62.847-84.707 62.847h-32.107v78.559h28.691c51.917 0 85.39 25.959 85.39 66.946 0 34.156-30.057 61.481-71.045 61.481h-6.831c-35.522 0-66.263-22.543-69.678-61.481h-90.855c0 81.975 70.362 140.040 163.949 140.040 102.468 0 165.316-61.481 165.316-133.209 0-54.65-33.473-97.003-84.024-110.666 50.551-13.662 87.44-56.699 87.44-111.349 0-88.806-73.094-136.624-172.147-136.624z" />
<glyph unicode="&#xe911;" glyph-name="form-phone" d="M434.95 660.404l-106.423 168.612c-12.113 21.194-36.427 32.263-60.366 27.482l-90.462-17.937c-26.936-5.104-32.265-23.746-42.169-49.31-73.49-191.246-24.769-418.178 146.675-590.134l1.397-1.396c171.938-171.422 398.878-237.216 590.11-163.717 25.565 9.905 44.209 32.302 49.314 59.239l17.94 90.464c4.758 23.936-6.306 48.236-27.485 60.361l-168.619 106.428c-22.237 12.702-50.218 8.993-68.377-9.064l-16.956-16.928c-27.48-27.425-64.156-64.035-81.853-81.678-57.587 20.706-109.817 54.022-152.871 97.511-43.481 43.067-76.794 78.233-97.508 135.82 21.655 21.707 71.823 71.969 98.611 98.797 18.049 18.167 21.75 63.215 9.044 85.45zM382.876 611.829l-62.053-62.163c-47.763-47.861-55.955-56.963-51.772-69.5 20.502-64.68 70.982-142.523 119.219-190.241 47.657-48.173 122.68-100.441 187.264-120.955 12.78-4.26 22.118 5.078 61.027 43.901l70.89 70.754c2.479 2.457 6.294 2.956 9.322 1.22l154.003-81.277c2.906-1.654 4.423-4.985 3.764-8.262l-16.466-83.006c-1.828-9.719-8.47-17.842-17.631-21.565-159.418-61.275-364.341-4.916-509.904 140.211l-1.231 1.232c-145.146 145.579-201.506 350.5-140.235 509.926 3.723 9.16 11.846 15.801 21.564 17.627l73.004 16.463c3.272 0.646 6.592-0.865 8.255-3.757l92.192-151.267c1.74-3.031 1.244-6.851-1.211-9.338z" />
<glyph unicode="&#xe912;" glyph-name="form-upload" d="M909.506 373.304l63.294 0.959-2.877-363.461h-915.846l-2.877 363.461h62.335v-301.126h795.971v300.167zM253.549 523.868l-42.196 46.032 299.208 287.7 309.757-287.7-42.196-46.032-233.996 220.57v-558.139h-63.294v556.221l-227.283-218.652z" />
<glyph unicode="&#xe913;" glyph-name="facebook" horiz-adv-x="546" d="M345.167-63.996v467.091h156.781l23.475 182.037h-180.256v116.219c0 52.704 14.634 88.617 90.206 88.617l96.391 0.042v162.815c-16.665 2.219-73.883 7.175-140.458 7.175-138.976 0-234.123-84.832-234.123-240.622v-134.246h-157.184v-182.037h157.184v-467.094l187.983 0.004z" />
<glyph unicode="&#xe914;" glyph-name="instagram" horiz-adv-x="1002" d="M500.89 943.972c136.028 0 153.086-0.573 206.508-3.014 53.312-2.435 89.721-10.9 121.58-23.281 32.938-12.799 60.869-29.926 88.714-57.771s44.972-55.78 57.771-88.716c12.385-31.86 20.85-68.27 23.283-121.582 2.439-53.422 3.012-70.476 3.012-206.504 0-136.032-0.573-153.086-3.012-206.508-2.433-53.312-10.898-89.721-23.283-121.582-12.799-32.936-29.926-60.871-57.771-88.716s-55.775-44.972-88.714-57.771c-31.858-12.38-68.267-20.846-121.58-23.281-53.422-2.437-70.48-3.014-206.508-3.014s-153.084 0.577-206.506 3.014c-53.314 2.435-89.724 10.9-121.58 23.281-32.938 12.799-60.871 29.926-88.716 57.771s-44.972 55.78-57.769 88.716c-12.387 31.86-20.852 68.27-23.283 121.582-2.439 53.422-3.014 70.476-3.014 206.508 0 136.028 0.575 153.082 3.014 206.504 2.43 53.312 10.896 89.721 23.283 121.582 12.797 32.936 29.924 60.871 57.769 88.716s55.778 44.972 88.716 57.771c31.856 12.38 68.265 20.846 121.58 23.281 53.422 2.441 70.478 3.014 206.506 3.014zM500.89 853.726c-133.738 0-149.576-0.509-202.394-2.918-48.831-2.228-75.354-10.391-93.004-17.247-23.379-9.087-40.065-19.941-57.591-37.468-17.524-17.528-28.378-34.212-37.465-57.591-6.859-17.649-15.019-44.172-17.25-93.004-2.406-52.818-2.918-68.656-2.918-202.394 0-133.742 0.512-149.58 2.918-202.394 2.231-48.836 10.391-75.359 17.25-93.008 9.087-23.377 19.941-40.063 37.465-57.591 17.526-17.526 34.212-28.381 57.591-37.465 17.649-6.859 44.172-15.021 93.004-17.245 52.809-2.413 68.645-2.92 202.394-2.92s149.585 0.507 202.394 2.92c48.833 2.224 75.354 10.387 93.004 17.245 23.382 9.085 40.067 19.939 57.591 37.465 17.531 17.528 28.385 34.214 37.468 57.591 6.856 17.649 15.019 44.172 17.247 93.008 2.408 52.814 2.92 68.652 2.92 202.394 0 133.738-0.512 149.576-2.92 202.394-2.228 48.831-10.391 75.354-17.247 93.004-9.083 23.379-19.937 40.063-37.468 57.591-17.524 17.526-34.209 28.381-57.591 37.468-17.649 6.856-44.17 15.019-93.004 17.247-52.818 2.408-68.656 2.918-202.394 2.918zM500.89 276.148c92.209 0 166.957 74.748 166.957 166.957 0 92.207-74.748 166.955-166.957 166.955-92.207 0-166.957-74.748-166.957-166.955 0-92.209 74.751-166.957 166.957-166.957zM500.89 700.306c142.048 0 257.201-115.156 257.201-257.201 0-142.052-115.153-257.203-257.201-257.203s-257.201 115.151-257.201 257.203c0 142.046 115.153 257.201 257.201 257.201zM828.36 710.469c0-33.193-26.91-60.105-60.105-60.105-33.193 0-60.105 26.912-60.105 60.105 0 33.195 26.912 60.105 60.105 60.105 33.195 0 60.105-26.91 60.105-60.105z" />
<glyph unicode="&#xe915;" glyph-name="twitter" horiz-adv-x="1280" d="M1260.092 838.797c-46.343-20.562-96.17-34.457-148.454-40.722 53.367 32.009 94.338 82.666 113.635 143.014-49.941-29.633-105.246-51.134-164.158-62.715-47.135 50.232-114.331 81.626-188.68 81.626-142.781 0-258.5-115.734-258.5-258.5 0-20.27 2.262-40.002 6.695-58.912-214.858 10.765-405.342 113.716-532.843 270.096-22.251-38.165-35.001-82.561-35.001-129.944 0-89.699 45.618-168.806 115.004-215.187-42.368 1.322-82.236 12.96-117.099 32.333-0.033-1.088-0.033-2.162-0.033-3.24 0-125.268 89.113-229.731 207.366-253.495-21.673-5.903-44.511-9.038-68.083-9.038-16.677 0-32.844 1.575-48.653 4.614 32.92-102.698 128.365-177.447 241.513-179.542-88.549-69.343-199.994-110.648-321.12-110.648-20.853 0-41.443 1.231-61.68 3.603 114.446-73.351 250.317-116.14 396.318-116.14 475.482 0 735.466 393.909 735.466 735.538 0 11.204-0.248 22.332-0.73 33.412 50.485 36.475 94.314 81.993 128.99 133.843z" />
<glyph unicode="&#xe916;" glyph-name="whatsapp" d="M1024 461.173c0-275.475-225.055-498.794-502.734-498.794-88.119 0-170.895 22.539-242.952 62.007l-278.313-88.386 90.723 267.695c-45.746 75.13-72.091 163.348-72.091 257.511 0.033 275.475 225.022 498.794 502.701 498.794 277.646-0.067 502.667-223.352 502.667-498.827zM525.441 879.158c-230.309 0-417.651-187.389-417.651-417.751 0-91.4 29.568-176.014 79.564-244.863l-52.14-155.093 160.447 51.387c66.001-43.638 144.97-69.049 229.781-69.049 230.309 0 417.717 187.356 417.717 417.717 0.066 230.262-187.375 417.651-417.717 417.651zM806.471 351.771c-3.378 4.988-12.217 8.028-25.44 14.107-13.187 6.079-78.475 35.316-90.584 39.28-12.217 4.063-21.056 6.112-29.895-6.013-8.731-12.124-34.171-39.346-41.968-47.473-7.725-8.094-15.451-9.118-28.709-3.138-13.259 6.145-56.017 18.831-106.681 60.027-39.417 32.111-66.042 71.656-73.732 83.78-7.797 12.091-0.791 18.633 5.785 24.645 5.929 5.451 13.259 14.14 19.906 21.242 6.647 7.037 8.839 12.025 13.259 20.119 4.348 8.094 2.156 15.131-1.114 21.242-3.306 6.079-29.787 65.544-40.89 89.76-11.031 24.183-22.062 20.185-29.823 20.185-7.725 0-16.564 0.991-25.404 0.991s-23.212-2.94-35.321-15.065c-12.109-12.124-46.388-41.362-46.388-100.893 0-59.598 47.466-117.048 54.113-125.109 6.683-8.028 91.769-134.194 226.549-182.625 134.851-48.398 134.851-32.244 159.141-30.195 24.362 2.048 78.475 29.237 89.47 57.45 11.067 28.345 11.067 52.627 7.725 57.682z" />
<glyph unicode="&#xe917;" glyph-name="youtube" horiz-adv-x="1475" d="M1432.395 799.774c31.322-114.447 30.118-352.979 30.118-352.979s0-237.327-30.118-351.774c-16.866-62.645-66.259-112.038-128.904-128.904-114.447-30.118-572.235-30.118-572.235-30.118s-456.584 0-572.235 31.322c-62.645 16.866-112.038 66.259-128.904 128.904-30.118 113.242-30.118 351.774-30.118 351.774s0 237.327 30.118 351.774c16.866 62.645 67.464 113.242 128.904 130.108 114.447 30.118 572.235 30.118 572.235 30.118s457.788 0 572.235-31.322c62.645-16.866 112.038-66.259 128.904-128.904zM966.174 448l-380.687 219.256v-438.513l380.687 219.256z" />
<glyph unicode="&#xe918;" glyph-name="tripadvisor" d="M616.183 727.245c28.064-3.968 55.546-11.017 82.692-19.362 47.405-14.598 92.138-34.878 134.208-61.187 2.928-1.816 6.835-2.969 10.283-2.969 49.425-0.204 98.82-0.133 148.184-0.173 3.978 0 7.937-0.418 11.905-0.643 0-0.969 0.143-1.377-0.020-1.591-2.305-3.56-4.642-7.049-6.957-10.589-16.771-25.717-31.094-52.598-39.54-82.324-0.928-3.183-1.112-5.866 1.051-8.998 43.988-63.166 58.025-132.515 39.642-207.27-16.118-65.564-53.7-116.682-110.796-152.866-40.815-25.881-85.905-38.204-134.086-38.469-20.229-0.122-40.377 2.601-60.147 7.722-48.181 12.507-89.475 36.51-123.497 72.888-4.478 4.774-8.712 9.763-13.496 15.149-17.995-26.819-35.704-53.2-53.832-80.264-18.066 26.993-35.531 53.118-52.955 79.142-1.204-0.632-1.551-0.704-1.785-0.928-0.398-0.326-0.734-0.724-1.061-1.102-41.152-48.609-92.934-78.407-156.029-88.374-35.082-5.56-69.848-3.56-103.931 5.835-48.303 13.272-89.353 38.755-122.517 76.346-32.42 36.765-52.567 79.448-60.147 127.985-8.661 45.283 1.897 88.965 4.519 99.565 7.631 30.808 20.933 59.096 39.193 85.109 1.285 1.846 1.734 5.111 1.122 7.314-7.447 27.309-20.28 52.149-35.307 75.938-3.815 6.049-8.385 11.65-12.609 17.454 0 0.653 0 1.347 0 2.020 0.847-0.112 1.683-0.265 2.51-0.265 50.558-0.020 101.105-0.041 151.662 0.061 2.203 0 4.652 0.908 6.529 2.112 35.521 22.79 73.368 40.846 113.132 54.903 28.686 10.12 57.953 18.026 87.813 23.8 28.91 5.59 57.974 9.538 87.343 11.466 71.623 5.478 128.852-2.101 166.924-7.437zM552.802 393.347c0-111.021 90.077-201.71 200.7-201.281 111.041 0.398 200.71 88.547 200.629 200.792-0.082 115.672-93.913 202.628-204.934 200.384-109.603-2.295-195.395-90.638-196.395-199.894zM251.752 593.986c-107.991 0.939-202.149-89.19-200.261-203.995 1.755-107.052 89.996-197.823 202.516-196.854 110.011 0.949 198.435 90.771 198.639 199.557 0.163 111.765-89.343 201.292-200.894 201.292zM261.709 646.359c60.993-3.723 114.591-24.983 159.864-66.155 45.181-41.091 71.654-92.352 81.274-152.632 9.905 59.565 35.674 110.337 80.009 151.030 44.416 40.724 97.279 62.095 157.283 66.614-71.195 31.655-146.286 45.1-223.561 46.589-87.843 1.724-173.279-11.221-254.869-45.447zM753.094 520.006c68.706 0.122 124.354-55.24 124.354-123.874 0-68.899-54.699-122.171-119.233-124.619-72.072-2.765-129.74 54.648-129.719 124.313 0.061 70.45 58.137 125.343 124.598 124.18zM834.133 395.826c-0.031 44.794-36.245 81.182-80.713 81.182-44.988 0-81.61-36.204-81.804-80.855-0.163-44.457 36.653-81.447 81.212-81.569 44.651-0.173 81.325 36.541 81.304 81.243zM249.1 520.006c68.665 0.071 124.394-55.383 124.231-123.997-0.204-69.471-54.954-121.558-118.355-124.445-72.358-3.315-130.74 54.363-130.607 124.394 0.143 70.95 58.617 125.231 124.731 124.048zM330.047 396.101c-0.143 45.059-36.572 80.978-82.059 80.896-43.886-0.082-80.641-37.112-80.549-81.151 0.112-44.549 36.837-81.182 81.529-81.304 44.427-0.102 81.192 36.888 81.080 81.559zM753.155 437.049c22.769 0.020 41.438-18.658 41.223-41.295-0.214-22.688-18.577-41.070-40.968-41.081-23.065 0-41.591 18.219-41.54 40.795 0.041 23.422 18.046 41.56 41.285 41.58zM248.886 437.416c23.116 0.020 41.693-18.444 41.784-41.489 0.092-22.841-18.658-41.601-41.662-41.662-23.555-0.051-41.723 18.148-41.703 41.835 0 23.239 18.128 41.285 41.58 41.315z" />
<glyph unicode="&#xe919;" glyph-name="bankett" d="M192.227 77.346v-78.746h42.766c14.145 0 25.611-11.467 25.611-25.611s-11.467-25.611-25.611-25.611h-149.26c-14.145 0-25.611 11.467-25.611 25.611s11.467 25.611 25.611 25.611h42.766v75.442l-128.499 226.047h321.036l-128.809-222.743zM159.382 104.9l50.984 94.074h-101.039l50.055-94.074zM237.704 254.084h-154.992l2.146-16.394h150.287l2.559 16.394zM533.56 77.346v-78.746h42.766c14.145 0 25.611-11.467 25.611-25.611s-11.467-25.611-25.611-25.611h-149.26c-14.145 0-25.611 11.467-25.611 25.611s11.467 25.611 25.611 25.611h42.766v75.442l-128.499 226.047h321.036l-128.809-222.743zM500.716 104.9l50.984 94.074h-101.039l50.055-94.074zM579.037 254.084h-154.992l2.146-16.394h150.287l2.559 16.394zM874.894 77.346v-78.746h42.766c14.145 0 25.611-11.467 25.611-25.611s-11.467-25.611-25.611-25.611h-149.26c-14.145 0-25.611 11.467-25.611 25.611s11.467 25.611 25.611 25.611h42.766v75.442l-128.499 226.047h321.036l-128.809-222.743zM842.049 104.9l50.984 94.074h-101.039l50.055-94.074zM920.371 254.084h-154.992l2.146-16.394h150.287l2.559 16.394zM351.516 395.924v-78.746h-63.728v75.442l-128.499 226.047h321.036l-128.809-222.743zM318.671 423.478l50.984 94.074h-101.039l50.055-94.074zM396.993 572.662h-154.992l2.146-16.394h150.287l2.559 16.394zM715.605 395.924v-78.746h-63.728v75.442l-128.499 226.047h321.036l-128.809-222.743zM682.76 423.478l50.984 94.074h-101.039l50.055-94.074zM761.082 572.662h-154.992l2.146-16.394h150.287l2.559 16.394zM533.56 714.502v-78.746h-63.728v75.442l-128.499 226.047h321.036l-128.809-222.743zM500.716 742.055l50.984 94.074h-101.039l50.055-94.074zM579.037 891.24h-154.992l2.146-16.394h150.287l2.559 16.394z" />
<glyph unicode="&#xe91a;" glyph-name="concierge" d="M852.755-36.955c-78.852 74.712-135.955 157.99-135.955 228.955 0 84.718 68.882 153.6 153.6 153.6s153.6-68.882 153.6-153.601c-0.004-70.735-57.131-154.032-136.009-228.934l-17.609-16.721-17.627 16.702zM972.8 192c0 56.441-45.959 102.4-102.4 102.4s-102.4-45.959-102.4-102.4c0-47.575 42.409-113.569 102.345-174.497 59.983 61.078 102.452 127.124 102.455 174.497zM870.4 140.8c-28.277 0-51.2 22.923-51.2 51.2s22.923 51.2 51.2 51.2c28.277 0 51.2-22.923 51.2-51.2s-22.923-51.2-51.2-51.2zM256 627.2c42.415 0 76.8 34.385 76.8 76.8s-34.385 76.8-76.8 76.8c-42.415 0-76.8-34.385-76.8-76.8s34.385-76.8 76.8-76.8zM256 576c-70.692 0-128 57.308-128 128s57.308 128 128 128c70.692 0 128-57.308 128-128s-57.308-128-128-128zM277.334 424.439c23.374 24.074 46.705 48.217 68.479 70.903 1.353 1.409 1.353 1.409 2.705 2.819 30.62 31.925 55.398 58.106 71.765 75.892 31.641 36.658 49.051 83.199 49.051 131.042 0 112.17-93.672 203.705-209.067 203.705-115.387 0-209.067-91.539-209.067-203.705 0-45.008 14.736-87.5 42.414-122.954 41.106-49.138 116.232-129.336 163.752-178.241 5.619 5.772 12.336 12.678 19.968 20.539zM165.926 425.722c-45.898 48.729-84.813 91.568-112.121 124.233-35.225 45.091-53.805 98.669-53.805 155.14 0 140.711 116.864 254.905 260.267 254.905 143.411 0 260.267-114.19 260.267-254.905 0-60.161-21.848-118.567-62.025-165.095-17.202-18.712-42.189-45.114-73.040-77.28-1.358-1.416-1.358-1.416-2.716-2.831-21.849-22.766-45.246-46.976-68.684-71.116-14.127-14.55-25.131-25.846-31.909-32.787-6.53-6.651-15.471-10.386-24.787-10.386-9.328 0-18.28 3.745-24.813 10.424-9.244 9.407-38.984 40.342-66.634 69.698zM648.249 678.4c-14.138 0-25.6 11.462-25.6 25.6s11.462 25.6 25.6 25.6h90.090c87.074 0 157.661-70.587 157.661-157.661s-70.587-157.661-157.661-157.661h-176.109c-70.157 0-127.031-56.874-127.031-127.031s56.874-127.031 127.031-127.031h43.702c14.138 0 25.6-11.462 25.6-25.6s-11.462-25.6-25.6-25.6h-43.702c-98.434 0-178.231 79.797-178.231 178.231s79.797 178.231 178.231 178.231h176.109c58.797 0 106.461 47.664 106.461 106.461s-47.664 106.461-106.461 106.461h-90.090z" />
<glyph unicode="&#xe91b;" glyph-name="information" d="M554.408 554.020h-148.428v-84.816h63.612v-233.244h-63.612v-84.816h212.040v84.816h-63.612v318.061zM512 617.632c35.082 0 63.612 28.53 63.612 63.612s-28.53 63.612-63.612 63.612c-35.082 0-63.612-28.53-63.612-63.612s28.53-63.612 63.612-63.612zM512 914.489c-257.226 0-466.489-209.263-466.489-466.489s209.263-466.489 466.489-466.489c257.226 0 466.489 209.263 466.489 466.489s-209.263 466.489-466.489 466.489zM512 45.594c-221.893 0-402.406 180.524-402.406 402.406s180.512 402.406 402.406 402.406c221.882 0 402.406-180.524 402.406-402.406s-180.524-402.406-402.406-402.406z" />
<glyph unicode="&#xe91c;" glyph-name="region" d="M1022.001 293.248l-312.246 473.654c-5.411 6.973-13.742 11.053-22.569 11.053s-17.157-4.080-22.569-11.053l-239.97-363.668-151.409 151.409c-4.903 4.611-11.277 7.343-17.998 7.713-7.393 0.002-14.444-3.109-19.426-8.57l-228.543-244.826c-6.583-7.042-8.909-17.062-6.102-26.284s10.321-16.246 19.712-18.426c9.39-2.18 19.23 0.815 25.813 7.858l89.132 95.131 39.424-36.567c10.49-8.51 25.506-8.51 35.995 0l43.994 38.281 42.852-38.281c5.025-4.3 11.386-6.723 17.998-6.856 6.641-0.019 13.053 2.424 17.998 6.856l46.28 41.138 15.141-14.855-150.552-225.971c-7.553-12.676-4.211-29.018 7.713-37.71 4.464-2.767 9.604-4.249 14.855-4.285 9.094 0.134 17.58 4.589 22.854 11.998l269.109 408.234 48.851-43.137c10.129-9.192 25.581-9.192 35.71 0l43.137 37.995 42.852-37.995c4.945-4.432 11.357-6.875 17.998-6.856 6.612 0.133 12.973 2.557 17.998 6.856l48.565 43.137 162.265-247.112c8.88-9.674 23.412-11.603 34.508-4.58s15.572 20.982 10.629 33.148v2.571zM314.947 387.237l-42.852 37.995c-10.49 8.51-25.506 8.51-35.995 0l-42.852-37.995-22.283 19.712 84.275 89.417 85.703-85.703-25.997-23.426zM748.035 522.362l-43.137 38.281c-10.129 9.192-25.581 9.192-35.71 0l-42.566-38.281-36.281 32.567 97.416 147.696 97.416-147.696-37.138-32.567z" />
<glyph unicode="&#xe91d;" glyph-name="restaurant" d="M531.837 960c-12.8 0-30.504-8.533-30.504-21.333v-232.533h-46.296v232.533c0 12.8-8.533 21.333-21.333 21.333s-30.504-8.533-30.504-21.333v-232.533h-46.296v232.533c0 12.8-8.533 21.333-21.333 21.333s-30.504-8.533-30.504-21.333v-232.533h-48.429v232.533c0 12.8-8.533 21.333-21.333 21.333-10.667 0-30.504-8.533-30.504-21.333v-253.867c0-72.533 53.971-132.267 117.971-157.867l-21.333-505.6c-2.133-23.467 6.4-44.8 23.467-59.733 14.933-17.067 36.267-25.6 59.733-25.6s44.8 8.533 59.733 25.6c14.933 17.067 23.467 38.4 23.467 59.733l-21.333 505.6c64 25.6 108.8 85.333 108.8 157.867v253.867c-2.133 12.8-12.8 21.333-23.467 21.333zM403.2-8.533c-14.933-14.933-24.325-14.933-39.259 0-8.533 8.533-10.667 19.2-10.667 29.867l21.333 497.067c6.4 0 3.629-2.133 10.029-2.133s3.629 0 10.029 2.133l21.333-497.067c-2.133-12.8-4.267-23.467-12.8-29.867zM384.637 568.104c-61.867 0-106.029 26.459-114.563 86.192h231.259c-12.8-57.6-54.829-86.192-116.696-86.192zM662.643 950.142c103.883-82.683 165.365-205.647 165.365-339.211v-298.93c0-12.72-8.48-21.201-21.201-21.201h-36.041v-332.851c0-12.72-8.48-21.201-21.201-21.201h-101.763c-12.72 0-21.201 8.48-21.201 21.201v975.232c0 8.48 6.36 14.84 12.72 19.081 8.48 4.24 16.961 2.12 23.321-2.12zM719.195-20.85v311.65h-41.021v-311.65h41.021zM776.437 333.202v277.729c0 103.883-21.94 185.185-96.142 257.268v-534.997h96.142z" />
<glyph unicode="&#xe91e;" glyph-name="roomservice" d="M968.848 447.359l-79.102-79.102c-4.011-3.968-9.429-6.229-15.104-6.229h-554.652c-5.675 0-11.093 2.261-15.104 6.229l-79.102 79.102h-33.791c-11.776 0-21.333 9.557-21.333 21.333s9.557 21.333 21.333 21.333h21.333c0 182.389 127.871 335.518 298.659 374.431v9.559c0 47.060 38.271 85.331 85.331 85.331s85.331-38.271 85.331-85.331v-9.559c170.787-38.913 298.659-192.042 298.659-374.431h21.333c11.776 0 21.333-9.557 21.333-21.333s-9.557-21.333-21.333-21.333h-33.791zM908.519 447.359h-622.404l42.708-42.708h536.988l42.708 42.708zM639.983 871.658v2.355c0 23.509-19.157 42.666-42.666 42.666s-42.666-19.157-42.666-42.666v-2.355c14.011 1.556 28.247 2.355 42.666 2.355s28.655-0.799 42.666-2.355zM255.993 490.024h682.648c0 188.198-153.126 341.324-341.324 341.324s-341.324-153.084-341.324-341.324zM246.023 316.273c-13.993-71.273-38.515-157.523-56.030-215.544l307.401-102.467c76.926-29.013 83.112-31.359 262.478 42.154l211.493 96.168c-23.509 28.501-61.481 41.556-98.771 32.255l-162.195-40.475c-0.413-0.131-0.832-0.25-1.257-0.356l-57.428-14.336c-11.733-2.944-23.978-4.437-36.18-4.437-9.813 0-19.669 0.939-29.269 2.859l-185.126 37.034c-11.562 2.304-19.029 13.525-16.725 25.087s13.397 19.157 25.087 16.725l185.083-37.034c15.445-3.115 31.615-2.688 46.761 1.109l40.959 10.24c-2.603 38.954-21.589 57.556-68.862 69.374l-367.421 81.645zM253.23 358.413l370.027-82.228c63.141-15.757 94.843-47.063 100.952-100.4l138.060 34.524c64.212 16.085 129.831-14.080 159.484-73.342 2.603-5.205 2.944-11.178 1.024-16.682-1.92-5.461-6.016-9.898-11.264-12.288l-234.66-106.664c-111.357-45.695-162.044-64.596-205.306-64.596-27.818 0-52.564 7.85-88.446 21.375l-305.664 101.861c-4.396-13.976-7.277-22.817-7.842-24.551-2.859-8.746-11.050-14.72-20.266-14.72h-127.997c-11.776 0-21.333 9.557-21.333 21.333v383.99c0 5.888 2.432 11.52 6.698 15.53s9.856 5.845 15.914 5.76c43.945-2.603 190.16-13.824 226.724-48.468 4.736-4.437 7.125-10.837 6.57-17.322-0.633-7.246-1.538-14.981-2.677-23.113zM42.666 63.369h91.091c15.872 50.089 67.028 216.101 78.334 309.538-26.837 13.056-100.861 24.831-169.425 30.25v-339.788zM327.458 532.69c-1.621 0-3.285 0.171-4.949 0.597-11.434 2.731-18.517 14.208-15.829 25.685 32.084 135.25 151.591 229.711 290.637 229.711 11.776 0 21.333-9.557 21.333-21.333s-9.557-21.333-21.333-21.333c-119.165 0-221.605-80.979-249.124-196.901-2.304-9.813-11.050-16.426-20.735-16.426z" />
<glyph unicode="&#xe91f;" glyph-name="service" d="M512 186.146l254.326-133.707-48.572 283.196 205.754 200.561-284.345 41.318-127.163 257.66-127.163-257.66-284.345-41.318 205.754-200.561-48.572-283.196 254.326 133.707zM191.185-39.075l61.27 357.233-259.545 252.994 358.682 52.12 160.408 325.021 160.408-325.021 358.682-52.12-259.545-252.994 61.27-357.233-320.815 168.663-320.815-168.663z" />
<glyph unicode="&#xe920;" glyph-name="spa" d="M512.014 115.073l-17.192 17.807c-1.547 1.604-38.139 39.755-74.913 101.344-34.202 57.254-74.97 146.492-74.97 246.413s40.767 189.159 74.97 246.413c36.785 61.589 73.377 99.751 74.913 101.344l17.192 17.829 17.204-17.807c1.536-1.604 38.128-39.755 74.913-101.344 34.202-57.254 74.97-146.492 74.97-246.413s-40.767-189.159-74.97-246.413c-36.785-61.589-73.377-99.751-74.913-101.344l-17.204-17.829zM512.037 775.326c-36.671-44.989-119.298-161.181-119.298-294.678 0-133.862 82.547-249.769 119.241-294.678 36.683 45 119.287 161.192 119.287 294.678 0.011 133.851-82.536 249.769-119.23 294.678zM606.224 93.091c-11.401 0-21.504 8.204-23.53 19.82-2.264 13.016 6.451 25.384 19.456 27.648 1.912 0.341 195.007 35.693 295.68 173.583 78.94 108.125 80.602 250.429 77.45 308.332-45.262-11.822-141.918-43.384-218.753-111.561-9.876-8.772-24.986-7.862-33.747 2.014s-7.862 24.986 2.014 33.758c113.916 101.093 261.637 127.729 267.86 128.799l24.394 4.244 3.391-24.52c0.296-2.196 7.35-54.592 0.751-126.023-6.144-66.413-25.828-162.523-84.743-243.227-58.927-80.715-144.466-128.73-205.85-154.82-66.026-28.047-118.069-37.286-120.254-37.673-1.377-0.25-2.753-0.375-4.119-0.375zM417.793 93.091c-1.365 0-2.742 0.125-4.13 0.364-2.185 0.375-54.239 9.626-120.254 37.673-61.396 26.090-146.935 74.116-205.85 154.82s-78.599 176.814-84.743 243.227c-6.611 71.431 0.455 123.827 0.751 126.023l3.391 24.52 24.394-4.244c6.235-1.081 153.955-27.717 267.86-128.799 9.876-8.772 10.775-23.882 2.014-33.758-8.772-9.876-23.882-10.775-33.758-2.014-77.052 68.382-173.48 99.808-218.696 111.595-3.083-57.948-1.32-200.514 77.404-308.355 100.98-138.311 293.757-173.241 295.691-173.583 13.016-2.253 21.721-14.632 19.456-27.648-2.025-11.617-12.118-19.82-23.53-19.82z" />
<glyph unicode="&#xe921;" glyph-name="wlan" d="M499.27 305.718c-64.678 0-118.577-53.899-118.577-118.577s53.899-118.577 118.577-118.577c64.678 0 118.577 53.899 118.577 118.577s-53.899 118.577-118.577 118.577zM499.273 127.712c-32.26 0-59.426 27.166-59.426 59.426s27.166 59.426 59.426 59.426c32.26 0 59.426-27.166 59.426-59.426s-27.166-59.426-59.426-59.426zM117.476 488.66c99.855 97.897 234.952 158.593 385.713 158.593 152.719 0 289.774-62.654 389.629-162.509l-36.513-47.407c-92.023 92.023-212.144 141.659-353.116 141.659s-257.177-49.953-349.2-140.018l-36.513 49.682zM234.952 363.352c66.57 66.57 158.593 107.686 260.405 107.686 103.771 0 197.751-43.075 264.321-111.602l-36.513-47.407c-60.696 60.696-135.785 90.752-227.808 90.752-90.065 0-163.196-28.099-223.892-86.837l-36.513 47.407zM509.063 823.467c199.709 0 381.797-82.233 514.937-215.373l-45.616-47.407c-125.308 125.308-279.402 194.523-469.321 194.523-187.962 0-340.098-58.473-463.448-181.823l-45.616 40.58c131.182 129.224 311.312 209.499 509.063 209.499z" />
</font>
</defs>
</svg>
